Once Upon a Time S05E14 HDTV x264-FLEET[rartv]

seeders: 169
leechers: 7
updated:
Added by z0n3212.58M in TV
Torrent verified. Downloaded 101,971 times.

DownloadFast Safe Anonymous
movies, software, shows...
  • View all Once Upon a Time episodes
  • Episode title: Devil's Due
  • Episode: S05E14
  • Air date: 20 March 2016
  • IMDb link: 1843230
  • TVmaze link: Once Upon a Time
  • Original run: 23 October 2011 — Present
  • Summary:

    A woman with a troubled past is drawn to a New England town where fairy tales are to be believed.

    Written by Thhaque414.95K
Available in versions: 1080p720p480pHDTVWEBRipx264x265
Once Upon a Time S05E14 HDTV x264-FLEET[rartv] (Size: 272.8 MB)
  Once.Upon.a.Time.S05E14.HDTV.x264-FLEET.mp4 272.8 MB
  rarbg.com.txt 34 bytes
  Once.Upon.a.Time.S05E14.HDTV.x264-FLEET.nfo 696 bytes

Description


http://rarbg.to
Once.Upon.a.Time.S05E14.HDTV.x264-FLEET[rartv]

image
Screens :

image
Mediainfo :

Video
ID : 1
Format : AVC
Format/Info : Advanced Video Codec
Format profile : [email protected]
Format settings, CABAC : Yes
Format settings, ReFrames : 5 frames
Codec ID : avc1
Codec ID/Info : Advanced Video Coding
Duration : 41mn 31s
Bit rate : 781 Kbps
Width : 720 pixels
Height : 404 pixels
Display aspect ratio : 16:9
Frame rate mode : Constant
Frame rate : 23.976 (24000/1001) fps
Color space : YUV
Chroma subsampling : 4:2:0
Bit depth : 8 bits
Scan type : Progressive
Bits/(Pixel*Frame) : 0.112
Stream size : 232 MiB (85%)
Writing library : x264 core 148 r2665 a01e339
Encoding settings : cabac=1 / ref=5 / deblock=1:0:0 / analyse=0x3:0x113 / me=umh / subme=8 / psy=1 / psy_rd=1.00:0.00 / mixed_ref=1 / me_range=16 / chroma_me=1 / trellis=1 / 8x8dct=1 / cqm=0 / deadzone=21,11 / fast_pskip=1 / chroma_qp_offset=-2 / threads=13 / lookahead_threads=2 / sliced_threads=0 / nr=0 / decimate=1 / interlaced=0 / bluray_compat=0 / constrained_intra=0 / bframes=3 / b_pyramid=2 / b_adapt=2 / b_bias=0 / direct=3 / weightb=1 / open_gop=0 / weightp=2 / keyint=250 / keyint_min=23 / scenecut=40 / intra_refresh=0 / rc_lookahead=50 / rc=crf / mbtree=1 / crf=19.0 / qcomp=0.60 / qpmin=0 / qpmax=69 / qpstep=4 / ip_ratio=1.40 / aq=1:1.00
Encoded date : UTC 2011-09-08 11:43:25
Tagged date : UTC 2011-09-08 11:43:25
Color range : Limited
Matrix coefficients : BT.709

Audio
ID : 2
Format : AAC
Format/Info : Advanced Audio Codec
Format profile : LC
Codec ID : 40
Duration : 41mn 31s
Bit rate mode : Variable
Bit rate : 132 Kbps
Maximum bit rate : 194 Kbps
Channel(s) : 2 channels
Channel positions : Front: L R
Sampling rate : 48.0 KHz
Frame rate : 46.875 fps (1024 spf)
Compression mode : Lossy
Stream size : 39.1 MiB (14%)
Encoded date : UTC 2011-09-08 11:43:25
Tagged date : UTC 2011-09-08 11:43:25

Related Torrents

torrent name size files age seed leech

Sharing Widget


Download torrent
272.8 MB
seeders:180
leechers:9
Once Upon a Time S05E14 HDTV x264-FLEET[rartv]



To share this torrent use the code below and insert it into comments, status messages, forum posts or your signature.

Torrent: Once Upon a Time S05E14 HDTV x264-FLEET[rartv]

Trackers

tracker name
udp://tracker.openbittorrent.com:80/announce
udp://tracker.publicbt.com:80/announce
udp://tracker.coppersurfer.tk:6969/announce
udp://glotorrents.pw:6969/announce
http://mgtracker.org:2710/announce
http://tracker.mg64.net:6881/announce
http://explodie.org:6969/announce
µTorrent compatible trackers list

Locations

name
KickassTorrents
Torrent hash: FB9F280730939D06D8C83386A333C436D03157A1

All Comments

audio
8/10
video
8/10
please, leave only comments related to that torrent
Sign In

audio: 9video: 9
thank you thumb_up
audio: 9video: 9
Very good quality, thank you
audio: 9video: 9
Thank you!
audio: 8video: 8
Thank you.
audio: 10video: 10
Thank you!
audio: 9video: 9
Thanks You
audio: 8video: 9
Thank you!
Show More All

User Opinions

eva13p9592, wizworx9236, Stoned625093, swkelly673059, orangezest967, simon3535626, Andr3s2009395, akatastatos298, kennynjamie211, susitasj114 ... And 1493 more
whiley1431, mishtom904, netuinho633, gianang479, twadugs440, sallen65371, Leonam13209, jacob-33377
Report a bug Open chat